当前位置:
首页 > 欧美电影 > [藩篱][WEB-MKV/4.66GB][无字片源][1080P][流媒体]

[藩篱][WEB-MKV/4.66GB][无字片源][1080P][流媒体]

[藩篱][WEB-MKV/4.66GB][无字片源][1080P][流媒体]

◎标  题 藩篱
◎译  名 篱笆内的风暴(台) / 心灵围篱(台) / 围栏(港)
◎片  名 Fences
◎年  代 2016
◎产  地 美国 / 加拿大
◎类  别  剧情
◎语  言 英语
◎上映日期 2016-12-16(美国)
◎IMDb评分 7.2/10 (112553人评价)
◎IMDb链接 https://www.imdb.com/title/tt2671706/
◎豆瓣评分 7.2/10 (11904人评价)
◎豆瓣链接 https://movie.douban.com/subject/21339682/
◎片  长 139分钟
◎导  演 丹泽尔·华盛顿 Denzel Washington
◎编  剧 奥古斯特·威尔逊 August Wilson
托尼·库什纳 Tony Kushner
◎演  员 丹泽尔·华盛顿 Denzel Washington
维奥拉·戴维斯 Viola Davis
斯蒂芬·亨德森 Stephen Henderson
约翰·艾德坡 Jovan Adepo
罗素·霍恩斯比 Russell Hornsby
麦凯尔泰·威廉逊 Mykelti Williamson
萨尼雅·西德尼 Saniyya Sidney
克里斯托弗·米勒 Christopher Mele
莱斯莉·布恩 Lesley Boone
杰森·斯维斯 Jason Silvis

◎简  介
美国黑人特洛伊(丹泽尔·华盛顿 饰)曾是一名棒球希望新星,却因为一次意外的抢劫杀人案而入狱,当时美国职业棒球大联盟种族隔离政策还未完全废除,黑人登场机会很少,加上特洛伊出狱后年纪也大了,因此他的棒球生涯就此结束,沦为匹兹堡的一名环卫工。该片还讲述了特洛伊与妻子、儿子和朋友的复杂关系。

##### MediaInfo ######
General
Unique ID : 294033506777854287661675839117353229752 (0xDD34CB25274453057C4B220C3BBB1DB8)
Complete name : Fences.2016.1080p.SHO.WEB-DL.DD.5.1.H.264-DreamHD.mkv
Duration : 2 h 18 min
Overall bit rate : 4 807 kb/s

Video
ID : 1
Format : AVC
Format/Info : Advanced Video Codec
Format profile : High@L4
Format settings : CABAC / 4 Ref Frames
Format settings, CABAC : Yes
Format settings, Reference frames : 4 frames
Codec ID : V_MPEG4/ISO/AVC
Duration : 2 h 18 min
Bit rate mode : Constant
Bit rate : 4 500 kb/s
Width : 1 920 pixels
Height : 1 080 pixels
Display aspect ratio : 16:9
Frame rate mode : Constant
Frame rate : 23.976 (24000/1001) FPS
Color space : YUV
Chroma subsampling : 4:2:0
Bit depth : 8 bits
Scan type : Progressive
Bits/(Pixel*Frame) : 0.091
Stream size : 4.29 GiB (92%)
Language : English
Default : Yes
Forced : No
Color range : Limited
Color primaries : BT.709
Transfer characteristics : BT.709
Matrix coefficients : BT.709

Audio
ID : 2
Format : AC-3
Format/Info : Audio Coding 3
Commercial name : Dolby Digital
Codec ID : A_AC3
Duration : 2 h 18 min
Bit rate mode : Constant
Bit rate : 384 kb/s
Channel(s) : 6 channels
Channel layout : L R C LFE Ls Rs
Sampling rate : 48.0 kHz
Frame rate : 31.250 FPS (1536 SPF)
Compression mode : Lossy
Stream size : 381 MiB (8%)
Language : English
Service kind : Complete Main
Default : Yes
Forced : No

Text
ID : 3
Format : UTF-8
Codec ID : S_TEXT/UTF8
Codec ID/Info : UTF-8 Plain Text
Duration : 2 h 18 min
Bit rate : 118 b/s
Frame rate : 0.200 FPS
Count of elements : 1655
Stream size : 119 KiB (0%)
Language : English
Default : No
Forced : No

点击图片可查看大图

软字幕无法在截图上展现,HDR版本/杜比视界版本截图会出现颜色异常,请使用支持的设备播放!

[藩篱][WEB-MKV/4.66GB][无字片源][1080P][流媒体][藩篱][WEB-MKV/4.66GB][无字片源][1080P][流媒体][藩篱][WEB-MKV/4.66GB][无字片源][1080P][流媒体][藩篱][WEB-MKV/4.66GB][无字片源][1080P][流媒体][藩篱][WEB-MKV/4.66GB][无字片源][1080P][流媒体][藩篱][WEB-MKV/4.66GB][无字片源][1080P][流媒体]